imdb
rating

7.6
Top Chef

Top Chef (2006)

Reality

Full description

Top Chef S13E15 Finale 720p WEB-DL AAC2 0 H264-NTb[rartv]

Size 1.366 GB   1 seeders     Added 2016-03-23 04:33:01

http://rarbg.to
Top.Chef.S13E15.Finale.720p.WEB-DL.AAC2.0.H264-NTb
Screens :
Mediainfo :
Video
ID : 1
Format : AVC
Format/Info : Advanced Video Codec
Format profile : [email protected]
Format settings, CABAC : No
Format settings, ReFrames : 2 frames
Codec ID : V_MPEG4/ISO/AVC
Duration : 43mn 1s
Bit rate : 4 071 Kbps
Width : 1 280 pixels
Height : 720 pixels
Display aspect ratio : 16:9
Frame rate mode : Constant
Frame rate : 23.976 (24000/1001) fps
Color space : YUV
Chroma subsampling : 4:2:0
Bit depth : 8 bits
Scan type : Progressive
Bits/(Pixel*Frame) : 0.184
Stream size : 1.22 GiB (96%)
Language : English
Default : Yes
Forced : No
Color range : Limited
Color primaries : BT.709
Transfer characteristics : BT.709
Matrix coefficients : BT.709
Audio
ID : 2
Format : AAC
Format/Info : Advanced Audio Codec
Format profile : LC
Codec ID : A_AAC
Duration : 43mn 2s
Bit rate : 157 Kbps
Channel(s) : 2 channels
Channel positions : Front: L R
Sampling rate : 48.0 KHz
Frame rate : 46.875 fps (1024 spf)
Compression mode : Lossy
Stream size : 48.3 MiB (4%)
Language : English
Default : Yes
Forced : No
Text
ID : 3
Format : UTF-8
Codec ID : S_TEXT/UTF8
Codec ID/Info : UTF-8 Plain Text
Duration : 42mn 55s
Bit rate : 183 bps
Count of elements : 1249
Stream size : 57.6 KiB (0%)
Language : English
Default : No
Forced : No
Top.Chef.S13E15.Finale.720p.WEB-DL.AAC2.0.H264-NTb[rarbg]/RARBG.com.txt 34 B
Top.Chef.S13E15.Finale.720p.WEB-DL.AAC2.0.H264-NTb[rarbg]/Top.Chef.S13E15.Finale.720p.WEB-DL.AAC2.0.H.264-NTb.mkv 1.365 GB
Top.Chef.S13E15.Finale.720p.WEB-DL.AAC2.0.H264-NTb[rarbg]/Top.Chef.S13E15.Finale.720p.WEB-DL.AAC2.0.H.264-NTb.srt 103.306 KB
Gathering some info...

Register and log in Isohunt and see no captcha anymore!

4000 symbols left
Hash fbd7a0ad61dd7bd0b6eb898a016e160aaabe1bd6

Related torrents for "Top Chef S13E15 Finale 720p WEB-DL AAC2 0 H264-NTb[rartv]"