imdb
rating

 
Sing

Sing (2016)

Animation, Comedy, Family, Music

Full description
quality   dvdr telesync x264 hd

Sing.2016.ItalAudio.HD-TS.x264.AAC-MvGee.mp4 [Isohunt.to]

Size 728.209 MB   29 seeders     Added 2016-12-19 19:59:37

8.3
Sing.2016.ItalAudio.HD-TS.x264.AAC-MvGee.mp4

http://www.imdb.com/title/tt3470600/

Set in a world like ours but entirely inhabited by animals, Buster Moon a dapper koala who presides over a once-grand theater that has fallen on hard times. Buster is an eternal-some might even say delusional-optimist who loves his theater above all and will do anything to preserve it. Now faced with the crumbling of his life's ambition, he has one final chance to restore his fading jewel to its former glory by producing the world's greatest singing competition.

Year: 2016 
Genres: Animation | Comedy | Drama | Family | Music
Directors: Christophe Lourdelet, Garth Jennings
Writer: Garth Jennings
Stars: Matthew McConaughey, Reese Witherspoon, Seth MacFarlane
MPA Rating: PG 
Runtime: 1h 48min
Rating: 7.3

[img]image[/img]

Duration: 01:40:45.56, start: 0.021333, bitrate: 963 kb/s
Stream #0:0(und): Video: h264 (Main) (avc1 / 0x31637661), yuv420p, 720x400 [SAR 1:1 DAR 9:5], 829 kb/s, 25 fps, 25 tbr, 12800 tbn, 50 tbc
Stream #0:1(und): Audio: aac (LC) (mp4a / 0x6134706D), 48000 Hz, stereo, fltp, 128 kb/s
Sing.2016.Italian.HD-TS.x264.AAC-MvGee.mp4 728.209 MB
Gathering some info...

Register and log in Isohunt and see no captcha anymore!

4000 symbols left
Hash 19a4bf765c07c822df2cd5450609a464649214c9

Related torrents for "Sing.2016.ItalAudio.HD-TS.x264.AAC-MvGee.mp4 [Isohunt.to]"

Torrent search:

telesync x264 hd 2016