imdb
rating

7.5
Deepwater Horizon

Deepwater Horizon (2016)

Drama

Full description
quality   hd cam x264 h264

Deepwater.Horizon.2016.720p.x264.AAC-MvGee [Isohunt.to] Verified

Size 1.089 GB   27 seeders     Added 2016-12-20 15:11:28

8.9
Deepwater.Horizon.2016.720p.x264.AAC-MvGee

http://www.imdb.com/title/tt1860357/

In April 2010, there is no oil exploration operation in the Gulf of Mexico to compare with the Deepwater Horizon oil rig with its size or sheer depth of its drilling. However, the project for the BP oil company is beset with technical difficulties to the point where the general operational supervisor, Jimmy Harrell, and his Chief Electrical Engineer, Mike Williams, are concerned potentially dangerous trouble is brewing. Unfortunately, visiting BP executives, frustrated by the project's long delays, order curtailed site inspections and slanted system tests to make up for lost time even as Harrell, Williams and his team helplessly protest for the sake of proper safety. On April 20, the workers' fears are realized in the worst possible way when the rig's various structural and system flaws spark a catastrophic cascade of failures that would create a massive blowout and explosion that threatens them all, even as it also begins the worst environmental disaster in US history.

Year: 2016 
Genres: Action, Drama, Thriller 
Director: Peter Berg
Writers: Matthew Michael Carnahan (screenplay), Matthew Sand (screenplay)
Stars: Mark Wahlberg, Kurt Russell, Douglas M. Griffin
MPA Rating: PG-13
Runtime: 1h 47min
Rating: 7.5

[img]http://image.tmdb.org/t/p/w640/7D6hM7IR0TbQmNvSZVtEiPM3H5h.jpg[/img]

Duration: 01:47:15.77, start: 0.021333, bitrate: 1353 kb/s
Stream #0:0(und): Video: h264 (Main) (avc1 / 0x31637661), yuv420p, 1280x528 [SAR 1:1 DAR 80:33], 1220 kb/s, 23.98 fps, 23.98 tbr, 24k tbn, 47.95 tbc
Stream #0:1(eng): Audio: aac (LC) (mp4a / 0x6134706D), 48000 Hz, stereo, fltp, 128 kb/s (default)
Deepwater.Horizon.2016.720p.x264.AAC-MvGee.mp4 1.089 GB
Gathering some info...

Register and log in Isohunt and see no captcha anymore!

4000 symbols left
Hash 73dfffee646fe77619a5c9938aed06a307418471

Related torrents for "Deepwater.Horizon.2016.720p.x264.AAC-MvGee [Isohunt.to]"

Torrent search:

x264 hd 2016