imdb
rating

 
Moonlight

Moonlight (2016)

Drama

Full description
quality   x264

Moonlight.2016.New.HDCAM.X264.AAC-MVGEE [Isohunt.to] Verified

Size 830.933 MB   421 seeders     Added 2017-01-09 20:25:17

10
Moonlight.2016.New.HDCAM.X264.AAC-MVGEE

http://www.imdb.com/title/tt4975722/

Three time periods - young adolescence, mid-teen and young adult - in the life of black-American Chiron is presented. When a child, Chiron lives with his single, crack addict mother Paula in a crime ridden neighborhood in Miami. Chiron is a shy, withdrawn child largely due to his small size and being neglected by his mother, who is more concerned about getting her fixes and satisfying her carnal needs than taking care of him. Because of these issues, Chiron is bullied, the slurs hurled at him which he doesn't understand beyond knowing that they are meant to be hurtful. Besides his same aged Cuban-American friend Kevin, Chiron is given what little guidance he has in life from a neighborhood drug dealer named Juan, who can see that he is neglected, and Juan's caring girlfriend Teresa, whose home acts as a sanctuary away from the bullies and away from Paula's abuse. With this childhood as a foundation, Chiron may have a predetermined path in life, one that will only be magnified in terms...

Year: 2016 
Genres: Drama
Director: Barry Jenkins
Writers: Barry Jenkins (screenplay), Tarell Alvin McCraney (story by)
Stars: Mahershala Ali, Shariff Earp, Duan Sanderson
MPA Rating: R 
Runtime: 1h 51min
Rating: 8.7

[img]image[/img]
[img]http://i.imgur.com/o94UPq6.png[/img]
[img]http://i.imgur.com/1ZUIs0f.png[/img]
[img]http://i.imgur.com/zQ6M0ki.png[/img]
[img]http://i.imgur.com/sCW6LWr.png[/img]

Duration: 01:46:09.84, start: 0.021333, bitrate: 1043 kb/s
Stream #0:0(und): Video: h264 (Main) (avc1 / 0x31637661), yuv420p, 720x392 [SAR 1:1 DAR 90:49], 906 kb/s, 29.97 fps, 29.97 tbr, 11988 tbn, 59.94 tbc
Stream #0:1(und): Audio: aac (LC) (mp4a / 0x6134706D), 48000 Hz, stereo, fltp, 128 kb/s
Moonlight.2016.HDCAM.X264.AAC-MVGEE.mp4 830.933 MB
Gathering some info...

Register and log in Isohunt and see no captcha anymore!

4000 symbols left
Hash 416ce14a5fdb1ae19b2a0933108ae3ee057bc64e