imdb
rating

 
Bilal: A New Breed of Hero

Bilal: A New Breed of Hero (2016)

Adventure, Animation, Action

Full description
quality   x264

La.La.Land.2016.New.HDCAM.X264.AAC-MVGEE [Isohunt.to]

Size 400.808 MB   321 seeders     Added 2017-01-12 08:32:23

10
La.La.Land.2016.New.HDCAM.X264.AAC-MVGEE

http://www.imdb.com/title/tt3783958/

Mia, an aspiring actress, serves lattes to movie stars in between auditions and Sebastian, a jazz musician, scrapes by playing cocktail party gigs in dingy bars, but as success mounts they are faced with decisions that begin to fray the fragile fabric of their love affair, and the dreams they worked so hard to maintain in each other threaten to rip them apart.

Year: 2016
Genres: Comedy, Drama, Musical
Director: Damien Chazelle
Writer: Damien Chazelle
Stars: Ryan Gosling, Emma Stone, Rosemarie DeWitt
MPA Rating: PG-13
Runtime: 2h 8min
Rating: 8.8

[img]image[/img]
[img]image[/img]
[img]image[/img]
[img]image[/img]

Duration: 01:59:59.19, start: 0.021333, bitrate: 445 kb/s
Stream #0:0(und): Video: h264 (Main) (avc1 / 0x31637661), yuv420p, 640x260 [SAR 1:1 DAR 32:13], 306 kb/s, 29.97 fps, 29.97 tbr, 30k tbn, 59.94 tbc
Stream #0:1(und): Audio: aac (LC) (mp4a / 0x6134706D), 48000 Hz, stereo, fltp, 129 kb/s
La.La.Land.2016.New.HDCAM.X264.AAC-MVGEE.mp4 400.808 MB
Gathering some info...

Register and log in Isohunt and see no captcha anymore!

4000 symbols left
Hash caf041ae3a8867c092143e6bb4d14da4d18a9bd4