imdb
rating

8.6
Vikings

Vikings (2013)

Drama, Action & Adventure

Full description

Vikings.S04E17.720P.X264.AAC-MVGEE [Isohunt.to]

Size 356.553 MB   1 038 seeders     Added 2017-01-12 09:48:08

Vikings.S04E17.720P.X264.AAC-MVGEE

http://www.imdb.com/title/tt2306299/ 

The adventures of Ragnar Lothbrok: the greatest hero of his age. The series tells the saga of Ragnar's band of Viking brothers and his family as he rises to become King of the Viking tribes. As well as being a fearless warrior, Ragnar embodies the Norse traditions of devotion to the gods: legend has it that he was a direct descendant of Odin, the god of war and warriors

Creator: Michael Hirst
Stars: Gustaf Skarsgård, Travis Fimmel, Katheryn Winnick 
Certificate: TV-14 
Runtime: 44min 
Genres: Action | Drama | History | Romance | War 
Rating: 8.6/10


[img]image[/img]

Duration: 00:43:29.94, start: 0.021333, bitrate: 1092 kb/s
Stream #0:0(und): Video: h264 (Main) (avc1 / 0x31637661), yuv420p, 1280x720 [SAR 1:1 DAR 16:9], 958 kb/s, 23.98 fps, 23.98 tbr, 24k tbn, 47.95 tbc
Stream #0:1(und): Audio: aac (LC) (mp4a / 0x6134706D), 48000 Hz, stereo, fltp, 128 kb/s (default)
Vikings.S04E17.720P.X264.AAC-MVGEE.mp4 356.553 MB
Gathering some info...

Register and log in Isohunt and see no captcha anymore!

4000 symbols left
Hash 297a6fb0ee035122111bffcdf6ea96a8a0ec9b65

Related torrents for "Vikings.S04E17.720P.X264.AAC-MVGEE [Isohunt.to]"

Torrent search:

episode 17 season 04 x264 hd