imdb
rating

8.8
It's Always Sunny in Philadelphia

It's Always Sunny in Philadelphia (2005)

Comedy

Full description

Its.Always.Sunny.in.Philadelphia.S12E02.720P.X264.AAC-MVGEE [Isohunt.to]

Size 491.778 MB   799 seeders     Added 2017-01-12 11:29:10

Its.Always.Sunny.in.Philadelphia.S12E02.720P.X264.AAC-MVGEE

http://www.imdb.com/title/tt0472954/

Five egocentric friends who run a neighborhood Irish pub in Philadelphia try to find their way through the adult world of work and relationships. Unfortunately, their warped views and precarious judgments often lead them to trouble, creating myriad uncomfortable situations that usually only get worse before they get better.

Year: 2005-
Genres: Comedy
Creators: Glenn Howerton, Rob McElhenney
Stars: Charlie Day, Glenn Howerton, Rob McElhenney 
MPA Rating: TV-MA
Runtime: 22min 
Rating: 8.8


[img]image[/img]

Duration: 00:17:57.37, start: 0.021333, bitrate: 3651 kb/s
Stream #0:0(und): Video: h264 (Main) (avc1 / 0x31637661), yuv420p, 1280x720 [SAR 1:1 DAR 16:9], 3518 kb/s, 23.98 fps, 23.98 tbr, 24k tbn, 47.95 tbc (default)
Stream #0:1(und): Audio: aac (LC) (mp4a / 0x6134706D), 48000 Hz, stereo, fltp, 128 kb/s (default)
Its.Always.Sunny.in.Philadelphia.S12E02.720P.X264.AAC-MVGEE.mp4 491.778 MB
Gathering some info...

Register and log in Isohunt and see no captcha anymore!

4000 symbols left
Hash fab2479b8f02c67a9c7849e67b1e8809e03a0988

Related torrents for "Its.Always.Sunny.in.Philadelphia.S12E02.720P.X264.AAC-MVGEE [Isohunt.to]"

Torrent search:

episode 02 x264 hd season 12